<?xml version="1.0" standalone="no"?>
<!DOCTYPE svg PUBLIC "-//W3C//DTD SVG 1.1//EN" "http://www.w3.org/Graphics/SVG/1.1/DTD/svg11.dtd">
<svg xmlns="http://www.w3.org/2000/svg">
<metadata>Generated by Fontastic.me</metadata>
<defs>
<font id="untitled-font-1" horiz-adv-x="512">
<font-face font-family="untitled-font-1" units-per-em="512" ascent="480" descent="-32"/>
<missing-glyph horiz-adv-x="512" />

<glyph glyph-name="additionally" unicode="&#98;" d="M472 418c22-8 38-29 38-54l0-254c0-60-48-108-108-108l-254 0c-25 0-46 16-54 38l53 0 255 0c39 0 70 31 70 70l0 254 0 1z m-83 92c32 0 57-26 57-57l0-330c0-32-25-57-57-57l-330 0c-31 0-57 25-57 57l0 330c0 31 26 57 57 57z m0-38l-330 0c-10 0-19-9-19-19l0-330c0-11 9-19 19-19l330 0c11 0 19 8 19 19l0 330c0 10-8 19-19 19z"/>
<glyph glyph-name="arrow-down" unicode="&#99;" d="M474 221c8 8 8 22 0 30-8 8-21 8-29 0l-167-176 0 413c0 11-9 21-22 21-11 0-22-8-22-21l0-413-167 176c-8 8-21 8-29 0-8-8-8-22 0-30l199-208c6-5 11-8 16-8 0 0 3 0 6 0 2 0 2 0 5 0 5 0 11 3 16 8z"/>
<glyph glyph-name="arrow-left" unicode="&#100;" d="M220 37c9-8 22-7 30 1 8 8 8 22-1 30l-175 167 414 0c11 0 21 9 21 21 0 12-10 21-21 21l-414 0 175 167c9 8 9 22 1 30-8 8-21 9-30 1l-208-199c-5-4-7-10-8-16 0-1-1-3-1-4 0-1 1-3 1-4 1-6 3-12 8-16z"/>
<glyph glyph-name="arrow-right" unicode="&#101;" d="M292 475c-9 8-22 7-30-1-8-8-8-22 1-30l175-167-414 0c-11 0-21-9-21-21 0-12 10-21 21-21l414 0-175-167c-9-8-9-22-1-30 8-8 21-9 30-1l208 199c5 4 7 10 8 16 0 1 1 3 1 4 0 1-1 3-1 4-1 6-3 12-8 16z"/>
<glyph glyph-name="arrow-up" unicode="&#102;" d="M37 292c-8-9-7-22 1-30 9-8 22-8 30 1l167 175 0-414c0-11 9-21 21-21 12 0 21 10 21 21l0 414 167-175c8-9 22-9 30-1 8 8 9 21 1 30l-199 208c-4 5-10 7-16 8-1 0-3 1-4 1-1 0-3-1-4-1-6-1-12-3-16-8z"/>
<glyph glyph-name="attach" unicode="&#103;" d="M250 466c60 59 156 59 216 0 58-58 59-151 4-211l-5-5-223-224-1 0c-37-34-94-33-130 3-34 34-37 86-9 123 0 1 1 2 2 3l1 2 2 2 4 4 0 0 189 189c6 7 17 7 25 2l2-2c6-7 7-17 2-25l-2-2-193-193c-18-22-17-55 4-76 21-21 54-22 76-3l225 224c44 45 44 117 0 162-44 43-113 44-158 4l-4-4 0-1-242-242c-8-7-20-7-27 0-7 7-8 18-2 25l2 2 242 243z"/>
<glyph glyph-name="basket" unicode="&#104;" d="M205 104c21 0 38-18 38-39 0-21-17-38-38-38-21 0-38 17-38 38 0 21 17 39 38 39z m153 0c21 0 38-18 38-39 0-21-17-38-38-38-21 0-39 17-39 38 0 21 18 39 39 39z m-337 381l9 0c26 0 48-17 55-42l1-4 1-5 404 0c12 0 21-11 19-23l-41-215c-8-39-42-67-81-67l-213 0c-39 0-73 28-81 67l-41 215-4 20c-2 8-8 14-16 15l-3 0-9 0c-10 0-19 9-19 20 0 9 7 17 16 18z m447-89l-373 0 37-193c4-21 22-36 43-36l213 0c21 0 39 15 43 36z"/>
<glyph glyph-name="calendar" unicode="&#105;" d="M417 509c51 0 92-41 92-92l0-322c0-51-41-92-92-92l-322 0c-51 0-92 41-92 92l0 322c0 51 41 92 92 92z m0-42l-322 0c-28 0-50-22-50-50l0-322c0-28 22-50 50-50l322 0c28 0 50 22 50 50l0 322c0 28-22 50-50 50z m-280-253c19 0 35-16 35-35 0-20-16-35-35-35-20 0-35 15-35 35 0 19 15 35 35 35z m119 0c19 0 35-16 35-35 0-20-16-35-35-35-19 0-35 15-35 35 0 19 16 35 35 35z m-119 140c19 0 35-15 35-35 0-19-16-35-35-35-20 0-35 16-35 35 0 20 15 35 35 35z m119 0c19 0 35-15 35-35 0-19-16-35-35-35-19 0-35 16-35 35 0 20 16 35 35 35z m119 0c20 0 35-15 35-35 0-19-15-35-35-35-19 0-35 16-35 35 0 20 16 35 35 35z"/>
<glyph glyph-name="camera-add" unicode="&#106;" d="M378 268c73 0 133-60 133-134 0-73-60-133-133-133-74 0-134 60-134 133 0 74 60 134 134 134z m0-49l-2 0c-5-1-9-5-10-10l0-2 0-61-61 0-2 0c-5-1-9-5-10-10l0-2 0-2c1-5 5-9 10-10l2 0 61 0 0-61 0-2c1-5 5-9 10-9l2-1 2 1c5 0 9 4 10 9l0 2 0 61 61 0 2 0c5 1 9 5 9 10l1 2-1 2c0 5-4 9-9 10l-2 0-61 0 0 61 0 2c-1 5-5 9-10 10z m-87 279c19 0 37-10 47-27l20-34 50 0c44 0 79-35 79-78l0-111c-11 10-23 19-37 26l0 85c0 23-19 42-42 42l-61 0c-6 0-12 3-15 9l-25 43c-4 5-10 8-16 8l-92 0c-6 0-11-2-14-6l-2-2-26-43c-3-6-9-9-16-9l-60 0c-24 0-43-19-43-42l0-231c0-23 19-42 43-42l147 0c4-13 10-25 17-37l-164 0c-44 0-79 36-79 79l0 231c0 43 35 78 79 78l50 0 21 35c10 16 28 26 47 26z m-47-133c49 0 90-32 104-76-12-2-24-6-35-11-9 29-36 50-69 50-40 0-72-32-72-72 0-35 24-64 56-71-4-12-6-24-7-36-49 11-86 54-86 107 0 60 49 109 109 109z"/>
<glyph glyph-name="checkmark" unicode="&#107;" d="M46 242c-8 8-21 8-29 0-9-8-9-21 0-30l126-126c8-8 21-8 30 0l308 309c9 8 9 21 0 30-8 8-21 8-29 0l-294-294z"/>
<glyph glyph-name="clock" unicode="&#108;" d="M256 510c140 0 254-114 254-254 0-140-114-254-254-254-140 0-254 114-254 254 0 140 114 254 254 254z m0-42c-117 0-212-95-212-212 0-117 95-212 212-212 117 0 212 95 212 212 0 117-95 212-212 212z m-19-60c10 0 18-7 19-16l0-3 0-133 83 0c10 0 19-9 19-19 0-10-8-18-17-19l-2 0-102 0c-10 0-18 7-19 16l0 3 0 152c0 11 8 19 19 19z"/>
<glyph glyph-name="curved-arrow-down" unicode="&#110;" d="M374 223c10 9 26 9 36 0 9-10 9-26 0-36l-167-166c-10-10-26-10-36 0l-166 166c-10 10-10 26 0 36 10 9 25 9 35 0l124-124 0 154c0 53 8 93 26 129l4 9c20 36 49 66 86 85 38 21 80 30 138 30 13 0 25-11 25-25 0-14-12-25-25-25-50 0-84-8-115-24-28-15-50-37-65-65-15-28-23-60-24-103l0-11 0-154z"/>
<glyph glyph-name="man" unicode="&#111;" d="M453 459c31 0 57-25 57-57l0-292c0-32-26-57-57-57l-394 0c-31 0-57 25-57 57l0 292c0 32 26 57 57 57z m0-38l-394 0c-10 0-19-8-19-19l0-292c0-11 9-19 19-19l70 0 0 70c0 23 18 42 41 44l3 0 165 0c24 0 43-18 45-41l0-3 0-70 70 0c10 0 19 8 19 19l0 292c0 11-9 19-19 19z m-115-254l-165 0c-3 0-5-2-6-5l0-1 0-70 178 0 0 70c0 3-2 5-5 6z m-82 216c42 0 76-34 76-76 0-42-34-76-76-76-42 0-76 34-76 76 0 42 34 76 76 76z m0-38c-21 0-38-17-38-38 0-21 17-38 38-38 21 0 38 17 38 38 0 21-17 38-38 38z"/>
<glyph glyph-name="mail" unicode="&#112;" d="M85 459l342 0c44 0 80-34 83-78l0-4 0-242c0-44-34-80-78-82l-5 0-342 0c-44 0-80 34-83 78l0 4 0 242c0 44 34 80 78 82l5 0 342 0z m387-136l-207-109c-5-3-10-3-15-1l-3 1-207 109 0-188c0-23 18-42 41-44l4 0 342 0c24 0 43 18 45 41l0 3z m-45 98l-342 0c-24 0-43-18-45-41l0-3 0-11 216-114 216 114 0 11c0 23-18 42-41 44z"/>
<glyph glyph-name="left" unicode="&#113;" d="M381 484c9-9 9-24 0-33l-195-195 195-195c9-9 9-24 0-33-9-10-24-10-33 0l-212 211c-9 10-9 24 0 34l212 211c9 10 24 10 33 0z"/>
<glyph glyph-name="info" unicode="&#114;" d="M256 510c140 0 254-114 254-254 0-140-114-254-254-254-140 0-254 114-254 254 0 140 114 254 254 254z m0-38c-119 0-216-97-216-216 0-119 97-216 216-216 119 0 216 97 216 216 0 119-97 216-216 216z m0-178c10 0 18-7 19-16l0-3 0-140c0-10-8-19-19-19-10 0-18 7-19 17l0 2 0 140c0 11 8 19 19 19z m0 89c14 0 25-11 25-25 0-14-11-26-25-26-14 0-25 12-25 26 0 14 11 25 25 25z"/>
<glyph glyph-name="gift" unicode="&#115;" d="M319 510c46 0 83-37 83-83 0-16-5-31-13-44l64 0c17 0 32-14 32-32l0-89c0-15-11-28-26-31l0-146c0-44-34-80-78-83l-4 0-242 0c-44 0-80 34-82 78l0 5 0 146c-15 3-26 16-26 31l0 89c0 18 15 32 32 32l64 0c-8 13-13 28-13 44 0 46 37 83 83 83 25 0 48-12 63-30 15 18 38 30 63 30z m-82-279l-146 0 0-146c0-24 18-43 41-45l3 0 102 0z m184 0l-146 0 0-191 102 0c23 0 42 18 44 41l0 4z m-184 114l-171 0 0-76 171 0z m209-76l0 76-171 0 0-76z m-127 203c-24 0-44-20-44-45l0-44 45 0 3 0c23 2 41 21 41 44 0 25-20 45-45 45z m-126 0c-25 0-45-20-45-45 0-23 18-42 41-44l3 0 45 0 0 44 0 4c-2 23-21 41-44 41z"/>
<glyph glyph-name="friends" unicode="&#116;" d="M326 180c24 0 44-20 44-45l0-24c3-56-38-84-112-84-74 0-116 28-116 83l0 25c0 25 20 45 44 45z m0-38l-140 0c-3 0-6-3-6-7l0-25c0-30 22-45 78-45 55 0 76 15 74 45l0 25c0 4-3 7-6 7z m-280 165l112 0c-2-8-4-17-4-26 0-4 1-8 1-12l-109 0c-3 0-6-3-6-7l0-25c0-30 23-45 78-45 12 0 22 1 31 2-15-9-25-23-30-40l-1 0c-74 0-116 28-116 83l0 25c0 25 20 45 44 45z m420 0c24 0 44-20 44-45l0-24c3-56-38-84-113-84l-4 0c-5 17-16 32-31 41 10-2 22-3 35-3 55 0 76 15 75 45l0 25c0 4-3 7-6 7l-109 0c0 4 1 8 1 12 0 9-2 18-4 26z m-210 51c42 0 76-35 76-77 0-42-34-76-76-76-42 0-76 34-76 76 0 42 34 77 76 77z m0-39c-21 0-38-17-38-38 0-21 17-38 38-38 21 0 38 17 38 38 0 21-17 38-38 38z m-140 166c42 0 77-35 77-77 0-42-35-76-77-76-42 0-76 34-76 76 0 42 34 77 76 77z m280 0c42 0 76-35 76-77 0-42-34-76-76-76-42 0-77 34-77 76 0 42 35 77 77 77z m-280-39c-21 0-38-17-38-38 0-21 17-38 38-38 21 0 38 17 38 38 0 21-17 38-38 38z m280 0c-21 0-38-17-38-38 0-21 17-38 38-38 21 0 38 17 38 38 0 21-17 38-38 38z"/>
<glyph glyph-name="eye-show" unicode="&#117;" d="M256 308c56 0 102-46 102-102 0-56-46-101-102-101-56 0-102 45-102 101 0 56 46 102 102 102z m0-38c-35 0-63-29-63-64 0-35 28-63 63-63 35 0 64 28 64 63 0 35-29 64-64 64z m0 127c117 0 218-80 246-192 3-11-3-21-13-24-11-2-21 4-24 14-23 96-109 164-209 164-100 0-186-68-209-164-3-10-13-16-24-14-10 3-16 13-13 23 28 113 129 193 246 193z"/>
<glyph glyph-name="download-file" unicode="&#118;" d="M238 171c6-6 15-6 21 0l63 63c6 6 6 15 0 21-6 6-15 6-21 0l-38-38 0 107c0 8-6 14-15 14-8 0-14-6-14-14l0-107-38 38c-6 6-15 6-21 0-6-6-6-15 0-21z m74-38l-127 0c-8 0-14-6-14-15 0-8 6-14 14-14l127 0c8 0 14 6 14 14 0 9-6 15-14 15z m79 379l-221 0c-4 0-8-2-11-4l-94-95c-3-3-5-7-5-10l0-348c0-25 21-46 47-46l284 0c25 0 46 21 46 46l0 411c0 25-21 46-46 46z m-220-35l0-59c0-9-8-17-17-17l-59 0z m237-422c0-9-8-17-17-17l-284 0c-10 0-17 8-17 17l0 317 64 0c25 0 46 21 46 46l0 65 191 0c9 0 17-8 17-17z"/>
<glyph glyph-name="download" unicode="&#119;" d="M259 408l3 1c10 0 17-8 19-17l0-3 0-297 94 95c7 7 18 7 25 2l2-2c7-7 8-18 2-25l-2-2-127-127c-6-7-17-7-24-2l-3 2-127 127c-7 7-7 19 0 27 7 7 18 7 25 2l2-2 95-94 0 296c0 10 7 18 16 19l3 1z m-188 77l381 0c31 0 55-24 57-54l0-4 0-292c0-30-23-55-53-57l-4 0-25 0c-11 0-19 9-19 19 0 10 7 18 16 19l3 0 25 0c10 0 18 7 19 17l0 2 0 292c0 10-7 18-16 19l-3 0-381 0c-9 0-17-7-19-16l0-3 0-292c0-9 7-17 17-19l2 0 26 0c10 0 19-8 19-19 0-9-7-17-17-19l-2 0-26 0c-30 0-55 24-57 53l0 4 0 292c0 31 24 55 53 57l4 1 381 0z"/>
<glyph glyph-name="down" unicode="&#120;" d="M28 381c9 9 24 9 33 0l195-195 195 195c9 9 24 9 33 0 10-9 10-24 0-33l-211-212c-10-9-24-9-34 0l-211 212c-10 9-10 24 0 33z"/>
<glyph glyph-name="dot" unicode="&#121;" d="M448 194c0-106-86-192-192-192-106 0-192 86-192 192 0 106 86 192 192 192 106 0 192-86 192-192z"/>
<glyph glyph-name="dismiss" unicode="&#122;" d="M17 490l3 2c8 9 21 9 30 3l3-3 203-203 203 203c9 9 24 9 33 0 9-9 9-24 0-33l-203-203 203-203c9-8 9-21 3-31l-3-2c-8-9-21-9-30-3l-3 3-203 203-203-203c-9-9-24-9-33 0-9 9-9 24 0 33l203 203-203 203c-9 8-9 21-3 31l3 2z"/>
<glyph glyph-name="curved-arrow-right" unicode="&#65;" d="M291 147c-10-9-10-25 0-35 10-10 26-10 35 0l167 167c10 10 10 25 0 35l-167 167c-9 9-25 9-35 0-10-10-10-26 0-36l124-124-158 0c-53 0-93-8-129-25l-8-4c-37-20-67-49-86-86-21-38-30-81-30-138 0-14 11-25 25-25 14 0 25 11 25 25 0 49 8 84 24 114 15 28 37 50 65 66 28 14 60 22 103 23l11 0 158 0z"/>
<glyph glyph-name="organization" unicode="&#66;" d="M300 510c31 0 57-26 57-57l0-76c0-32-26-58-57-58l-19 0 0-50 82 0c31 0 55-24 57-54l1-3 0-19 19 0c31 0 57-26 57-58l0-76c0-31-26-57-57-57l-77 0c-31 0-57 26-57 57l0 76c0 32 26 58 57 58l20 0 0 19c0 9-8 17-17 18l-3 1-203 0c-9 0-17-8-19-17l0-2 0-19 19 0c32 0 57-26 57-58l0-76c0-31-25-57-57-57l-76 0c-32 0-57 26-57 57l0 76c0 32 25 58 57 58l19 0 0 19c0 30 24 55 53 57l4 0 83 0 0 50-19 0c-32 0-57 26-57 58l0 76c0 31 25 57 57 57z m-140-356l-76 0c-11 0-19-8-19-19l0-76c0-10 8-19 19-19l76 0c11 0 19 9 19 19l0 76c0 11-8 19-19 19z m280 0l-77 0c-10 0-19-8-19-19l0-76c0-10 9-19 19-19l77 0c10 0 19 9 19 19l0 76c0 11-9 19-19 19z m-140 318l-76 0c-11 0-19-9-19-19l0-76c0-11 8-19 19-19l76 0c10 0 19 8 19 19l0 76c0 10-9 19-19 19z"/>
<glyph glyph-name="plus" unicode="&#67;" d="M9 253l0 3c0 9 6 16 15 17l2 0 213 0 0 213c0 9 7 17 17 17 10 0 17-8 17-17l0-213 213 0c8 0 16-6 17-14l0-3c0-9-6-16-15-17l-2 0-213 0 0-213c0-9-7-17-17-17-10 0-17 8-17 17l0 213-213 0c-8 0-16 6-17 14z"/>
<glyph glyph-name="print" unicode="&#68;" d="M448 372l-51 0 0 94c0 9-8 16-16 16l-275 0c-9 0-17-7-17-16l0-94-51 0c-21 0-38-17-38-38l0-163c0-21 17-38 38-38l51 0 0-87c0-9 8-16 17-16l275 0c8 0 16 7 16 16l0 87 51 0c21 0 38 17 38 38l0 163c0 21-17 38-38 38z m-326 77l242 0 0-77-242 0z m242-386l-242 0c0 3 0 128 0 132l242 0c0-4 0-129 0-132z m90 108c0-3-3-5-6-5l-51 0 0 45c0 9-8 16-16 16l-275 0c-9 0-17-7-17-16l0-45-51 0c-3 0-6 2-6 5l0 163c0 3 3 6 6 6 12 0 398 0 410 0 3 0 6-3 6-6z m-74 138l-41 0c-9 0-16-7-16-16 0-9 7-16 16-16l41 0c9 0 16 7 16 16 0 9-7 16-16 16z m-67-190l-140 0c-9 0-17-7-17-16 0-9 8-16 17-16l140 0c9 0 16 7 16 16 0 9-7 16-16 16z m0 52l-140 0c-9 0-17-8-17-17 0-9 8-16 17-16l140 0c9 0 16 7 16 16 0 9-7 17-16 17z"/>
<glyph glyph-name="reading" unicode="&#69;" d="M402 510c30 0 55-24 57-53l0-4 0-394c0-30-23-55-53-57l-4 0-292 0c-30 0-55 24-57 53l0 4 0 394c0 30 23 55 53 57l4 0z m0-38l-292 0c-10 0-18-7-19-17l0-2 0-394c0-9 7-17 16-19l3 0 292 0c10 0 18 7 19 17l0 2 0 394c0 9-7 17-16 19z m-140-241c11 0 19-9 19-19 0-10-7-18-16-19l-3 0-114 0c-10 0-19 8-19 19 0 9 7 17 16 19l3 0z m102 76c10 0 19-9 19-19 0-10-7-18-16-19l-3 0-216 0c-10 0-19 8-19 19 0 9 7 17 16 19l3 0z m0 76c10 0 19-9 19-19 0-10-7-18-16-19l-3 0-216 0c-10 0-19 8-19 19 0 10 7 18 16 19l3 0z"/>
<glyph glyph-name="right" unicode="&#70;" d="M131 484c-9-9-9-24 0-33l195-195-195-195c-9-9-9-24 0-33 9-10 24-10 33 0l212 211c9 10 9 24 0 34l-212 211c-9 10-24 10-33 0z"/>
<glyph glyph-name="save" unicode="&#71;" d="M349 510c8 0 15-1 21-6l131-115c6-6 9-14 9-23l0-294c0-32-26-57-57-57l-394 0c-31 0-57 25-57 57l0 381c0 31 26 57 57 57z m-245-38l-45 0c-10 0-19-9-19-19l0-381c0-11 9-19 19-19l19 0 0 146c0 23 18 42 41 44l4 0 267 0c24 0 42-19 44-42l0-3 0-145 19 0c10 0 19 8 19 19l0 292-126 108-1 0 0-83c0-24-20-44-45-44l-152 0c-24 0-44 20-44 44z m286-267l-267 0c-3 0-6-2-7-5l0-1 0-146 280 0 0 146c0 3-2 5-4 6z m-83 267l-165 0 0-83c0-3 3-6 6-6l152 0c4 0 7 3 7 6z"/>
<glyph glyph-name="search" unicode="&#72;" d="M215 490c107 0 194-87 194-193 0-47-16-89-43-122l130-131c8-8 8-20 0-28-7-7-18-8-26-2l-2 2-131 130c-33-27-75-43-122-43-106 0-193 87-193 194 0 106 87 193 193 193z m0-40c-84 0-153-69-153-153 0-85 69-154 153-154 85 0 154 69 154 154 0 84-69 153-154 153z"/>
<glyph glyph-name="settings" unicode="&#73;" d="M256 504c19-1 38-3 56-7 8-2 14-8 15-16l4-39c2-18 17-31 35-31 5 0 9 1 14 3l35 15c8 3 16 2 22-4 26-28 45-61 56-97 2-7 0-16-7-20l-32-24c-9-6-14-17-14-28 0-11 5-22 15-28l31-24c7-4 9-13 7-20-11-36-30-69-56-97-6-6-14-7-22-4l-35 15c-10 5-22 4-32-1-10-6-16-16-17-27l-4-39c-1-8-7-14-15-16-37-9-75-9-112 0-8 2-14 8-14 16l-5 39c-1 11-7 21-17 27-10 5-21 6-32 1l-35-15c-8-4-16-2-22 4-26 28-45 61-56 96-2 8 1 17 7 21l32 24c9 6 14 17 14 28 0 11-5 22-14 28l-32 23c-6 5-9 14-7 21 11 36 30 69 56 97 6 6 14 7 22 4l35-15c11-5 22-4 32 1 10 6 16 16 17 27l5 39c1 8 6 14 14 16 19 4 37 6 56 7z m0-38c-11-1-23-2-34-3l-3-25c-2-23-16-44-36-56-20-11-45-13-66-3l-23 10c-14-18-26-38-34-59l20-15c19-14 30-36 30-59 0-23-11-45-30-59l-20-15c8-21 20-41 34-59l23 10c21 9 46 8 66-3 20-12 34-33 36-56l3-25c22-3 46-3 68 0l3 25c2 23 16 44 36 56 20 11 45 13 66 3l23-10c14 18 26 38 34 59l-20 15c-19 14-30 36-30 59 0 23 11 45 30 59l20 15c-8 21-20 41-34 59l-23-10c-9-4-19-6-29-6-38 0-69 28-73 65l-3 25c-11 1-22 2-34 3z m0-115c53 0 95-42 95-95 0-53-42-95-95-95-53 0-95 42-95 95 0 53 42 95 95 95z m0-38c-32 0-57-25-57-57 0-32 25-57 57-57 32 0 57 25 57 57 0 32-25 57-57 57z"/>
<glyph glyph-name="share" unicode="&#74;" d="M383 497c49 0 89-40 89-89 0-49-40-89-89-89-26 0-50 12-66 30l-116-66c3-9 4-18 4-27 0-9-1-18-4-27l116-66c16 18 40 30 66 30 49 0 89-40 89-89 0-50-40-89-89-89-49 0-89 39-89 89 0 9 1 18 4 26l-116 66c-16-18-39-29-66-29-49 0-89 40-89 89 0 49 40 89 89 89 27 0 50-11 66-29l116 66c-3 8-4 17-4 26 0 49 40 89 89 89z m0-343c-28 0-51-22-51-50 0-28 23-51 51-51 28 0 51 23 51 51 0 28-23 50-51 50z m-267 153c-28 0-50-23-50-51 0-28 22-51 50-51 28 0 51 23 51 51 0 28-23 51-51 51z m267 152c-28 0-51-23-51-51 0-28 23-50 51-50 28 0 51 22 51 50 0 28-23 51-51 51z"/>
<glyph glyph-name="sign-out" unicode="&#75;" d="M255 64l-191 0c-12 0-21 9-21 19l0 346c0 10 9 19 21 19l191 0c12 0 21 9 21 19 0 11-9 19-21 19l-191 0c-35 0-64-25-64-57l0-346c0-32 29-57 64-57l191 0c12 0 21 8 21 19 0 10-9 19-21 19z m251 206l-130 115c-8 7-21 7-30 0-8-8-8-20 1-27l92-83-248 0c-11 0-21-8-21-19 0-11 10-19 21-19l248 0-92-83c-9-7-9-19-1-27 4-4 10-5 15-5 6 0 11 1 15 5l130 115c4 4 6 9 6 14 0 5-2 10-6 14z"/>
<glyph glyph-name="star" unicode="&#76;" d="M171 352l68 139c7 14 27 14 34 0l68-139 153-22c16-2 22-21 10-32l-110-108 26-152c3-15-14-27-28-20l-136 72-136-72c-14-7-31 5-28 20l26 152-110 108c-12 11-6 30 10 32z m85 87l-55-113c-3-5-9-9-15-10l-124-18 90-88c4-4 6-10 5-16l-21-124 111 58c6 3 12 3 18 0l111-58-21 124c-1 6 1 12 5 16l90 88-124 18c-6 1-12 5-14 10z"/>
<glyph glyph-name="store" unicode="&#77;" d="M408 510c5 0 9-2 12-4l2-2 83-90 1-1c3-3 4-7 4-11l0-49c0-25-10-48-25-65l0-267c0-10-8-18-17-19l-3 0-418 0c-10 0-18 7-19 17l-1 2 0 267c-14 16-23 37-25 60l0 5 0 48c0 3 1 7 2 10l2 3 1 1 83 89c3 3 7 5 11 6l3 0z m-74-214l0-1c-18-24-46-39-78-39-32 0-61 16-78 40-18-24-47-40-79-40-12 0-23 2-33 6l0-222 38 0 0 172c0 9 7 17 16 18l3 1 114 0c9 0 17-8 19-17l0-2 0-172 190 0 0 222c-10-4-21-6-33-6-33 0-61 16-79 40z m-116-104l-76 0 0-152 76 0z m171 39c10 0 18-8 19-17l1-2 0-89c0-10-8-18-17-19l-3 0-88 0c-10 0-18 7-19 16l-1 3 0 89c0 9 8 17 17 18l3 1z m-19-39l-50 0 0-50 50 0z m-211 191l-119 0 0-30 0-4 1-6 1-4 1-4 2-4 1-2c0-2 1-4 2-5l3-4 1-2 3-4 4-4 2-2 2-1c8-6 17-11 28-12l4-1 4 0c32 0 57 24 60 55l0 4z m156 0l-118 0 0-30c0-30 22-54 51-58l4-1 4 0c31 0 57 24 59 55l0 4z m157 0l-119 0 0-30c0-30 23-54 52-58l4-1 4 0c14 0 27 5 37 14l3 2 3 3 3 4c2 2 3 3 4 5l3 5 1 4 2 4 1 2 1 4 0 4 1 4 0 4z m-291 89l-69 0-47-51 101 0z m110 0l-70 0-15-51 100 0z m109 0l-69 0 15-51 101 0z"/>
<glyph glyph-name="trash" unicode="&#78;" d="M256 493c42 0 76-33 79-74l0-5 127 0c10 0 18-8 18-18 0-9-7-17-15-18l-3 0-19 0-31-316c-3-33-30-58-62-60l-5 0-178 0c-33 0-61 24-66 56l-1 4-31 316-19 0c-9 0-17 7-18 15l0 3c0 9 7 17 15 18l3 0 127 0c0 44 35 79 79 79z m150-115l-300 0 30-312c2-15 13-26 28-28l3 0 178 0c15 0 27 11 30 25l1 3z m-108-67c10 0 17-7 18-16l1-2 0-170c0-10-9-18-19-18-9 0-16 7-18 16l0 2 0 170c0 10 8 18 18 18z m-84 0c9 0 16-7 18-16l0-2 0-170c0-10-8-18-18-18-10 0-17 7-18 16l-1 2 0 170c0 10 9 18 19 18z m42 145c-22 0-41-17-42-38l0-4 84 0c0 23-19 42-42 42z"/>
<glyph glyph-name="upload" unicode="&#79;" d="M73 295l119 0c11 0 19-9 19-19 0-10-7-18-16-19l-3 0-119 0c-17 0-31-12-32-26l0-3-1-121c0-14 13-27 29-28l3 0 368 0c17 0 30 11 32 25l0 3 0 121c0 15-12 27-29 28l-3 1-119 0c-11 0-19 8-19 19 0 9 7 17 16 19l3 0 119 0c37 0 68-27 70-62l0-5 0-121c0-36-30-64-66-66l-4 0-368 0c-37 0-68 27-70 62l0 4 1 121c0 36 29 64 66 67l4 0 119 0z m194 174l2-2 100-100c8-7 8-19 0-27-7-7-17-7-25-2l-2 2-67 68 0-247c0-10-9-19-19-19-11 0-19 9-19 19l0 246-67-67c-7-7-18-7-25-2l-2 2c-7 7-8 18-2 25l2 2 100 100c6 7 17 7 24 2z"/>
<glyph glyph-name="up" unicode="&#80;" d="M28 131c9-9 24-9 33 0l195 195 195-195c9-9 24-9 33 0 10 9 10 24 0 33l-211 212c-10 9-24 9-34 0l-211-212c-10-9-10-24 0-33z"/>
<glyph glyph-name="coins" unicode="&#109;" d="M450 472l1 2z m-164 0l-1 2z m-30-24l-2-1 2-3 2 3z m-30 24l-1-3z m-164 0l-1 2z m0-365l-1-3z m76-17l2 0 0 2-2 0z m236 0l0 2-2 0 0-2z m76 17l1-3z m21 116l-3 0z m-28-29l1-2z m-69-15l-2 0 0-3 2 0z m0 44l0 2-2 0 0-2z m76 17l-1 2z m21 13l2 0 0 6-4-4z m-252 74l-1 2z m-150 0l1 2z m-28 59l2 2-4 4 0-6z m21-13l-1-3z m164 0l1-3z m21 13l2 0 0 6-4-4z m-185-80l-1-2z m164 0l1-2z m21 14l2 0 0 5-4-3z m0-31l0-3 2 1 0 2z m-64-13l-1 2z m-39-31l0-3 1 0 1 2z m-75 15l-1-2z m-28 60l2 2-4 3 0-5z m0-67l2 2-4 4 0-6z m21-13l-1-3z m76-17l2 0 0 2-2 0z m0-44l0-3 2 0 0 3z m-69 15l-1-2z m88 34l-2 1 0 0z m198 0l2 1 0 0z m-25-34l-2 2z m-148 0l2 2z m261 66l1-2z m-75-15l-2-1 1-2 1 0z m-39 31l-1-3z m-64 13l-2 0 0-2 2-1z m0 31l2 2-4 3 0-5z m21-14l-1-2z m164 0l1-2z m21 14l2 0 0 5-4-3z m-28 7l-1 2z m-150 0l1 2z m-28 59l2 2-4 4 0-6z m21-13l-1-3z m164 0l1-3z m21 13l2 0 0 6-4-4z m-178 65l1-2z m150 0l-1-2z m0-58l-1 3z m-150 0l1 3z m-224 58l1-2z m150 0l-1-2z m0-58l-1 3z m-150 0l1 3z m0-266l1 3z m-28 60l2 2-4 4 0-6z m21-14l1 3z m76-17l2 0 0 3-2 0z m0-44l0-3 2 0 0 3z m192-51l-2 2z m-148 0l2 2z m-26 59l2 2-5 3 0-5z m7-6l1 2z m102-24l1 3-1 0 0 0z m11 10l2-1z m-120 86l2 2-5 4 0-6z m200 0l3 0 0 6-5-4z m-96-86l3 0z m11-10l-1 3 0 0z m78 24l2-2z m7 6l3 0 0 5-5-3z m87 7l1-2z m-69-15l-2 0 0-3 2 0z m0 44l0 3-2 0 0-3z m76 17l-1 3z m21 14l2 0 0 6-4-4z m-20 287c-23 11-52 17-83 17l0-5c30 0 59-6 81-17z m-83 17c-31 0-60-6-83-17l2-5c22 11 51 17 81 17z m-83-17c-14-7-24-15-31-24l4-3c6 8 16 16 29 22z m-27-24c-7 9-17 17-31 24l-2-5c13-6 23-14 29-22z m-31 24c-23 11-52 17-83 17l0-5c30 0 59-6 81-17z m-83 17c-31 0-60-6-83-17l2-5c22 11 51 17 81 17z m-83-17c-25-13-40-31-40-52l5 0c0 18 13 35 37 47z m-40-52l0-266 5 0 0 266z m0-266c0-21 15-39 40-52l2 5c-24 12-37 29-37 47z m40-52c21-10 48-16 77-17l0 5c-28 1-54 7-75 17z m74-14l0 0 5 0 0 0z m0 0c0-20 14-38 35-50 22-12 52-19 86-19l0 5c-33 0-62 7-83 19-21 11-33 27-33 45z m121-69c34 0 64 7 86 19 21 12 35 30 35 50l-5 0c0-18-12-34-33-45-21-12-50-19-83-19z m121 69l0 0-5 0 0 0z m-3-3c29 1 56 7 77 17l-2 5c-21-10-47-16-75-17z m77 17c25 13 40 31 40 52l-5 0c0-18-13-35-37-47z m40 52l0 266-5 0 0-266z m0 266c0 21-15 39-40 52l-2-5c24-12 37-29 37-47z m-23-199c0-4-2-9-7-13-4-5-11-10-19-14l2-4c9 4 16 9 21 14 5 5 8 11 8 17z m-26-27c-18-9-43-14-68-15l0-5c26 1 51 6 70 16z m-65-17l0 44-5 0 0-44z m0 44c0 0 0 0 0 0 0 0 0 0 0 0l-5 0c0 0 0 0 0 0 0 0 0 0 0 0z m-3-3c29 1 56 7 77 17l-2 5c-21-10-47-16-75-17z m77 17c8 5 15 9 21 14l-3 4c-6-5-12-9-20-13z m17 16l0-30 5 0 0 30z m-224 103c0-4-2-9-6-13-5-5-12-10-20-14l2-4c9 4 16 9 21 14 5 5 8 11 8 17z m-26-27c-19-9-46-15-74-15l0-5c28 0 56 6 76 16z m-74-15c-27 0-54 6-74 15l-2-4c20-10 48-16 76-16z m-74 15c-8 4-15 9-19 14-5 4-7 9-7 13l-5 0c0-6 3-12 8-17 5-5 12-10 21-14z m-26 27l0 30-5 0 0-30z m-4 28c6-5 13-9 21-14l2 5c-8 4-14 8-20 13z m21-14c23-11 52-17 83-17l0 5c-30 0-59 6-81 17z m83-17c31 0 60 6 83 17l-2 5c-22-11-51-17-81-17z m83 17c9 5 16 9 22 14l-4 4c-5-5-12-9-20-13z m17 16l0-30 5 0 0 30z m-183-82c23-11 52-17 83-17l0 5c-30 0-59 6-81 17z m83-17c31 0 60 6 83 17l-2 5c-22-11-51-17-81-17z m83 17c9 4 16 9 22 14l-4 4c-5-5-12-9-20-13z m17 16l0-31 5 0 0 31z m3-28c-24-1-47-6-65-14l2-5c18 8 40 13 63 13z m-65-14c-19-8-33-19-40-32l4-2c7 11 20 21 38 29z m-38-31c-27 1-54 6-74 16l-2-5c20-10 48-16 76-16z m-74 16c-8 4-15 8-19 13-5 5-7 9-7 13l-5 0c0-5 3-11 8-16 5-6 12-11 21-15z m-26 26l0 31-5 0 0-31z m-4 29c6-5 13-10 21-14l2 5c-8 4-14 8-20 13z m0-67c6-5 13-9 21-14l2 5c-8 4-14 8-20 13z m21-14c21-10 48-16 77-17l0 5c-28 1-54 7-75 17z m74-14c0 0 0 0 0 0 0 0 0 0 0 0l5 0c0 0 0 0 0 0 0 0 0 0 0 0z m0 0l0-44 5 0 0 44z m3-42c-25 1-50 6-68 15l-2-4c19-10 44-15 70-16z m-68 15c-8 4-15 9-19 14-5 4-7 9-7 13l-5 0c0-6 3-12 8-17 5-5 12-10 21-14z m-26 27l0 30-5 0 0-30z m115 4c3 9 14 18 31 25 17 8 40 13 66 13l0 5c-27 0-50-5-68-13-17-7-30-17-33-28z m97 38c26 0 49-5 66-13 17-7 28-16 31-25l4 2c-3 11-16 21-33 28-18 8-41 13-68 13z m97-38c0-1 0-3 0-4l6 0c0 2-1 4-2 6z m0-4c0-4-2-9-6-14-4-4-10-9-19-13l3-4c8 4 15 9 20 14 5 5 8 11 8 17z m-25-27c-19-10-44-15-72-15l0-5c28 0 55 5 75 16z m-72-15c-28 0-53 5-72 15l-3-4c20-11 47-16 75-16z m-72 15c-9 4-15 9-19 13-4 5-6 10-6 14l-6 0c0-6 3-12 8-17 5-5 12-10 20-14z m-25 27c0 1 0 3 0 4l-4 2c-1-2-2-4-2-6z m309 66c0-4-2-8-7-13-4-5-11-9-19-13l2-5c9 4 16 9 21 15 5 5 8 11 8 16z m-26-26c-20-10-47-15-74-16l0-5c28 0 56 6 76 16z m-72-17c-7 13-21 24-40 32l-2-5c18-8 31-18 38-29z m-40 32c-18 8-41 13-65 14l0-6c23 0 45-5 63-13z m-62 11l0 31-5 0 0-31z m-5 29c6-5 13-10 22-14l2 5c-8 4-15 8-20 13z m22-14c23-11 52-17 83-17l0 5c-30 0-59 6-81 17z m83-17c31 0 60 6 83 17l-2 5c-22-11-51-17-81-17z m83 17c8 4 15 9 21 14l-3 4c-6-5-12-9-20-13z m17 16l0-31 5 0 0 31z m0 36c0-4-2-9-7-13-4-5-11-10-19-14l2-4c9 4 16 9 21 14 5 5 8 11 8 17z m-26-27c-20-9-47-15-74-15l0-5c28 0 56 6 76 16z m-74-15c-28 0-55 6-74 15l-2-4c20-10 48-16 76-16z m-74 15c-8 4-15 9-20 14-4 4-6 9-6 13l-5 0c0-6 3-12 8-17 5-5 12-10 21-14z m-26 27l0 30-5 0 0-30z m-5 28c6-5 13-9 22-14l2 5c-8 4-15 8-20 13z m22-14c23-11 52-17 83-17l0 5c-30 0-59 6-81 17z m83-17c31 0 60 6 83 17l-2 5c-22-11-51-17-81-17z m83 17c8 5 15 9 21 14l-3 4c-6-5-12-9-20-13z m17 16l0-30 5 0 0 30z m-174 63c19 9 46 15 74 15l0 5c-28 0-56-6-76-16z m74 15c27 0 54-6 74-15l2 4c-20 10-48 16-76 16z m74-15c8-4 15-9 19-14 5-4 7-9 7-13l5 0c0 6-3 12-8 17-5 5-12 10-21 14z m26-27c0-4-2-8-7-13-4-5-11-9-19-13l2-5c9 4 16 9 21 15 5 5 8 11 8 16z m-26-26c-20-10-47-16-74-16l0-5c28 0 56 6 76 16z m-74-16c-28 0-55 6-74 16l-2-5c20-10 48-16 76-16z m-74 16c-8 4-15 8-20 13-4 5-6 9-6 13l-5 0c0-5 3-11 8-16 5-6 12-11 21-15z m-26 26c0 4 2 9 6 13 5 5 12 10 20 14l-2 4c-9-4-16-9-21-14-5-5-8-11-8-17z m-198 27c20 9 47 15 74 15l0 5c-28 0-56-6-76-16z m74 15c28 0 55-6 74-15l2 4c-20 10-48 16-76 16z m74-15c8-4 15-9 20-14 4-4 6-9 6-13l5 0c0 6-3 12-8 17-5 5-12 10-21 14z m26-27c0-4-2-8-6-13-5-5-12-9-20-13l2-5c9 4 16 9 21 15 5 5 8 11 8 16z m-26-26c-19-10-46-16-74-16l0-5c28 0 56 6 76 16z m-74-16c-27 0-54 6-74 16l-2-5c20-10 48-16 76-16z m-74 16c-8 4-15 8-19 13-5 5-7 9-7 13l-5 0c0-5 3-11 8-16 5-6 12-11 21-15z m-26 26c0 4 2 9 7 13 4 5 11 10 19 14l-2 4c-9-4-16-9-21-14-5-5-8-11-8-17z m26-292c-8 4-15 8-19 13-5 5-7 9-7 13l-5 0c0-5 3-11 8-16 5-6 12-11 21-15z m-26 26l0 31-5 0 0-31z m-4 29c6-5 13-10 21-14l2 5c-8 4-14 8-20 13z m21-14c21-10 48-16 77-17l0 5c-28 1-54 7-75 17z m74-15l0-44 5 0 0 44z m3-41c-25 0-50 6-68 15l-2-5c19-9 44-15 70-16z m190-52c-19-10-44-15-72-15l0-5c28 0 55 5 75 16z m-72-15c-28 0-53 5-72 15l-3-4c20-11 47-16 75-16z m-72 15c-9 4-15 9-19 14-4 4-6 9-6 13l-6 0c0-6 3-12 8-17 5-5 12-10 20-14z m-25 27l0 30-6 0 0-30z m-5 28c2-2 5-4 7-6l3 4c-2 2-4 4-6 6z m7-6c4-2 11-5 20-8 8-3 18-6 29-9 20-5 43-9 56-7l-1 5c-12-1-33 2-54 7-11 3-21 6-29 8-8 3-14 6-18 8z m104-24c0 0 1 0 2 0l0 5c-1 0-1 0-1 0z m2 0c6 0 10 5 11 11l-5 1c-1-5-4-7-6-7z m11 11c1 5-2 8-4 10-2 1-3 2-4 3 0 0 0 1-1 1 0 0 0 0 0 0 0 0 0 0 0 0 0 0 0 0 0 0 0 0 0 0 0 0 0 0 0 0 0 0 0 0 0 0 0 0 0 0 0 0-1-2-2-2-2-2-2-2 0 0 0 0 0 0 0 0 0 0 0 0 0 0 0 0 0 0 0 0 0 0 0 0 0 0 0 0 1-1 0 0 0 0 0 0 1-1 2-1 3-2 2-2 3-4 3-6z m-10 14c-42 2-69 10-86 19-9 4-15 9-18 13-4 5-5 8-5 11l-6 0c0-4 3-9 7-14 4-5 10-10 19-15 18-9 47-17 88-19z m-109 43l0 30-6 0 0-30z m-5 28c22-19 59-30 102-30l0 5c-43 0-78 11-98 29z m102-30c43 0 80 11 102 30l-4 4c-20-18-55-29-98-29z m97 32l0-30 6 0 0 30z m0-30c0-6-4-15-17-23-13-9-35-16-69-20l1-5c34 4 57 12 71 21 14 9 20 19 20 27z m-85-45c-2 2-2 2-2 2 0 0 0 0 0 0 0 0 0 0 0 0 0 0 0 0 0 0 0 0 0 0 0 0 0 0 0 0 0 0 0 0-1-1-1-1-1-1-2-2-3-3-2-2-5-6-4-10l5 1c0 2 1 4 3 6 0 1 1 1 2 2 0 0 1 0 1 1 0 0 0 0 0 0 0 0 0 0 0 0 0 0 0 0 0 0 0 0 0 0 0 0 0 0 0 0-1 2z m-10-12c0-1 0-2 0-3 0-1 0-2 0-3 0-1 0-3 1-4 1-1 3-2 4-2l0 6c-1 0 0 0 0 0 0-1 0-1 0 0 0 1 0 1 0 3 0 1 0 2 0 4z m5-12c0 0 2 1 4 1 1 0 2 0 2 0 1 0 1 0 1 0 0 0 1 0 1 0l-1 5c0 0 0 0 0 0 0 0 0 0-1 0 0 0-1 0-2 0-2 0-4 0-4 0z m8 1c8 1 24 4 40 9 8 2 16 5 23 7 7 3 13 6 17 8l-3 4c-4-2-9-4-16-7-7-2-14-5-22-7-16-5-32-8-40-9z m80 24c2 2 5 4 7 6l-4 4c-2-2-4-4-6-6z m2 8l0-30 6 0 0 30z m0-30c0-4-2-9-6-13-4-5-10-10-19-14l3-4c8 4 15 9 20 14 5 5 8 11 8 17z m89 40c-18-9-43-15-68-15l0-6c26 1 51 7 70 16z m-65-18l0 44-5 0 0-44z m-3 42c29 1 56 7 77 17l-2 5c-21-10-47-16-75-17z m77 17c8 4 15 9 21 14l-3 4c-6-5-12-9-20-13z m17 16l0-31 5 0 0 31z m0-31c0-4-2-8-7-13-4-5-11-9-19-13l2-5c9 4 16 9 21 15 5 5 8 11 8 16z m-18 316c-23 11-52 17-82 17-31 0-60-6-82-17-13-7-23-15-30-24-7 9-17 17-30 24-22 11-51 17-82 17-30 0-59-6-82-17-25-13-39-30-39-50l0-266c0-19 14-37 39-49 21-10 48-16 76-17l0 0c0-38 51-67 118-67 67 0 118 29 118 67l0 0c28 1 55 7 76 17 25 12 39 30 39 49l0 266c0 20-14 37-39 50z m21-249c0-10-11-21-28-29-19-9-43-15-69-15l0 44c0 0 0 0 0 0 28 1 55 7 76 17 8 4 15 8 21 13z m-224 133c0-10-11-21-28-29-20-10-47-16-75-16-28 0-55 6-75 16-17 8-28 19-28 29l0 30c6-5 13-9 21-13 23-11 52-17 82-17 31 0 60 6 82 17 8 4 15 8 21 13z m-185-50c23-11 52-17 82-17 31 0 60 6 82 17 8 4 15 9 21 14l0-31c-24-1-46-6-64-13-19-8-32-19-39-31-28 0-55 6-75 15-17 9-28 20-28 29l0 31c6-5 13-10 21-14z m-21-53c6-5 13-9 21-13 21-10 48-16 76-17 0 0 0 0 0 0l0-44c-26 0-50 6-69 15-17 8-28 19-28 29z m116-25c7 19 46 39 99 39 53 0 92-20 99-39 1-2 1-3 1-5 0-10-10-21-26-29-20-10-46-16-74-16-28 0-54 6-74 16-16 8-26 19-26 29 0 2 0 3 1 5z m314 61c0-9-11-20-28-29-20-9-47-15-75-15-7 12-20 23-39 31-18 7-40 12-64 13l0 31c6-5 13-10 21-14 22-11 51-17 82-17 30 0 59 6 82 17 8 4 15 9 21 14z m0 67c0-10-11-21-28-29-20-10-47-16-75-16-28 0-55 6-75 16-17 8-28 19-28 29l0 30c6-5 13-9 21-13 22-11 51-17 82-17 30 0 59 6 82 17 8 4 15 8 21 13z m-178 95c20 10 47 16 75 16 28 0 55-6 75-16 17-8 28-19 28-29 0-9-11-20-28-29-20-9-47-15-75-15-28 0-55 6-75 15-17 9-28 20-28 29 0 10 11 21 28 29z m-224 0c20 10 47 16 75 16 28 0 55-6 75-16 17-8 28-19 28-29 0-9-11-20-28-29-20-9-47-15-75-15-28 0-55 6-75 15-17 9-28 20-28 29 0 10 11 21 28 29z m0-324c-17 9-28 20-28 29l0 31c6-5 13-10 21-14 21-10 48-16 76-17l0-44c-26 1-50 6-69 15z m261-66c-20-10-46-16-74-16-28 0-54 6-74 16-16 8-26 19-26 29l0 30c2-2 4-4 7-6 14-10 78-26 102-24 1 0 1 0 2 0 4 0 8 4 9 10 0 6-8 11-8 11-84 3-112 31-112 45l0 30c21-18 57-30 100-30 43 0 79 12 100 30l0-30c0-14-20-38-88-45 0 0-8-5-8-11 1-6-1-10 3-10 1 0 7 0 8 0 15 2 64 14 78 24 3 2 5 4 7 6l0-30c0-10-10-21-26-29z m113 66c-19-9-43-14-69-15l0 44c28 1 55 7 76 17 8 4 15 9 21 14l0-31c0-9-11-20-28-29z"/>
<glyph glyph-name="whatsapp-icon" unicode="&#97;" d="M413 415c-42 42-98 65-157 65-122 0-222-100-222-222 0-39 10-77 30-111l-32-115 118 31c32-18 69-27 106-27l0 0c122 0 224 99 224 222 0 59-25 115-67 157z m-157-342c-33 0-66 9-94 26l-7 4-70-18 19 68-4 7c-19 29-29 63-29 98 0 102 83 184 185 184 49 0 96-19 130-54 35-35 57-81 57-130 0-102-85-185-187-185z m101 138c-5 3-33 17-38 18-5 2-9 3-12-2-4-6-15-18-18-22-3-4-6-4-12-2-32 17-54 30-75 66-6 10 5 10 16 31 2 3 1 7-1 9-1 3-12 31-17 42-4 10-9 9-12 9-3 0-7 0-11 0-3 0-9-1-15-7-5-5-19-19-19-46 0-27 20-54 23-57 2-4 39-60 94-84 36-15 49-17 67-14 11 2 33 13 37 26 5 13 5 25 4 27-2 2-5 4-11 6z"/>
<glyph glyph-name="vk-icon" unicode="&#81;" d="M484 379c4 11 0 19-15 19l-53 0c-13 0-19-7-22-15 0 0-27-65-65-107-12-12-18-16-24-16-4 0-9 4-9 15l0 104c0 13-3 19-14 19l-83 0c-8 0-13-6-13-12 0-12 19-15 21-51l0-77c0-17-3-20-10-20-18 0-61 65-87 140-5 14-10 20-23 20l-53 0c-14 0-17-7-17-15 0-13 17-82 82-173 44-63 105-96 160-96 33 0 37 7 37 20 0 60-3 65 14 65 8 0 21-4 52-34 36-35 42-51 62-51l52 0c15 0 22 7 18 22-10 31-77 95-80 99-8 10-6 15 0 23 0 0 64 90 70 121z"/>
<glyph glyph-name="viber-icon" unicode="&#82;" d="M444 462c-13 12-64 49-179 50 0 0-135 8-201-53-36-36-49-90-50-157-2-66-4-191 117-224l0 0 0-52c0 0-1-21 13-25 16-5 26 11 42 28 9 9 21 23 30 33 82-7 145 9 152 12 17 5 111 17 126 142 16 128-8 209-50 246z m14-237c-13-104-89-111-103-115-6-2-62-16-131-11 0 0-52-63-68-79-6-6-12-5-11 5 0 7 0 86 0 86 0 0 0 0 0 0-102 28-96 134-95 190 1 55 12 101 43 131 56 51 170 43 170 43 97 0 144-29 154-39 36-31 54-104 41-211z m-139 81c0-9-13-9-13-1-1 22-11 33-33 34-8 1-7 13 1 13 28-2 44-18 45-46z m20-12c1 43-25 76-76 80-8 0-7 13 1 13 58-5 89-44 88-93 0-8-13-8-13 0z m47-13c0-9-13-9-13 0 0 81-55 126-120 126-9 0-9 13 0 13 73 0 133-51 133-139z m-11-98l0 0c-11-19-31-40-52-34l0 1c-21 6-71 31-102 56-16 13-31 28-43 43-10 13-20 28-30 46-22 39-26 56-26 56-7 21 14 41 33 52l0 0c9 5 18 3 24-4 0 0 12-15 18-22 5-7 11-18 15-24 6-11 2-22-4-27l-12-9c-6-5-5-14-5-14 0 0 18-68 84-85 0 0 9 0 14 6l10 12c4 6 15 10 26 3 15-8 34-21 46-32 7-6 9-15 4-24z"/>
<glyph glyph-name="telegram-icon" unicode="&#83;" d="M479 413l-68-318c-5-23-18-29-37-18l-103 76-50-48c-5-5-10-10-21-10l8 105 191 172c8 8-2 12-13 5l-236-149-102 32c-22 7-22 22 5 32l397 154c19 6 35-5 29-33z"/>
<glyph glyph-name="odnoklassniki-icon" unicode="&#84;" d="M371 178c-27-17-65-24-90-27l21-21 76-76c28-28-17-73-45-46-19 20-47 48-77 77l-76-76c-28-28-74 17-45 45 19 20 47 48 76 77l21 20c-25 3-63 9-91 27-33 21-47 33-34 59 7 15 27 27 54 6 0 0 37-29 95-29 59 0 95 29 95 29 27 21 47 9 55-6 12-26-2-38-35-59z m-245 204c0 72 59 130 130 130 71 0 130-58 130-130 0-71-59-129-130-129-71 0-130 58-130 129z m66 0c0-35 29-63 64-63 35 0 64 28 64 63 0 36-29 64-64 64-35 0-64-28-64-64z"/>
<glyph glyph-name="instagram-icon" unicode="&#85;" d="M256 371c-63 0-115-51-115-115 0-64 52-115 115-115 64 0 115 51 115 115 0 64-51 115-115 115z m0-190c-41 0-75 34-75 75 0 41 34 75 75 75 41 0 75-34 75-75 0-41-34-75-75-75z m147 195c0-15-12-27-27-27-15 0-27 12-27 27 0 14 12 26 27 26 15 0 27-12 27-26z m76-28c-2 36-10 68-37 94-26 27-58 35-93 37-37 2-148 2-185 0-36-2-68-10-94-37-27-26-35-58-36-93-3-37-3-148 0-185 1-36 9-68 36-94 26-26 58-35 94-36 37-3 148-3 185 0 35 1 67 9 93 36 27 26 35 58 37 94 2 37 2 147 0 184z m-48-224c-8-20-23-35-43-43-29-11-99-9-132-9-32 0-103-2-132 9-20 8-35 23-43 43-11 29-9 99-9 132 0 33-2 103 9 132 8 20 23 35 43 43 30 11 100 9 132 9 33 0 103 2 132-9 20-8 35-23 43-43 12-29 9-99 9-132 0-33 3-103-9-132z"/>
<glyph glyph-name="facebook-icon" unicode="&#86;" d="M375 224l14 93-89 0 0 60c0 25 13 50 53 50l40 0 0 79c0 0-37 6-72 6-73 0-121-44-121-125l0-70-81 0 0-93 81 0 0-224 100 0 0 224z"/>
</font>
</defs>
</svg>
